+ heartofrecycling.net »  :::: Dubbed Zone (Dubbed English in Hindi) » English Movies Dubbed in Hindi
|- The Darkest Minds (2018) 720p BluRay Dual Audio [Hindi - English] DD5.1 ~ Ranvijay


HDFC 10% Off

The Darkest Minds (2018) 720p BluRay Dual Audio [Hindi - English] DD5.1 ~ Ranvijay

0 Members and 1 Guest are viewing this topic.

October 20, 2018, 10:54:54 PM
  • Global Moderator
  • Legend Member
  • *****
  • Topic Author
  • Thank You: 10104
  • Reputation: 2086
  • Activity:
    100%
  • Country: in
  • Posts: 5241
  • Topics: 4324
  • Join Date: Jan 2014
  • ıllıllı ѕмoĸιng ιѕ good ғor нealтн ıllıllı :)




The Darkest Minds (2018) 720p BluRay Dual Audio [Hindi - English] DD5.1 ~ Ranvijay

Thanks To Invincible For Hindi Audio

Buy RDP Online




Quote

Format                                   : Matroska
Format version                           : Version 4 / Version 2
File size                                : 1.43 GiB
Duration                                 : 1 h 43 min
Overall bit rate                         : 1 973 kb/s
Movie name                               : The Darkest Minds (2018) 720p BluRay Dual Audio [Hindi - English] DD5.1 ~ Ranvijay

Video
ID                                       : 1
Format                                   : AVC
Duration                                 : 1 h 43 min
Bit rate                                 : 1 500 kb/s
Width                                    : 1 280 pixels
Height                                   : 536 pixels
Display aspect ratio                     : 2.40:1
Frame rate mode                          : Constant
Frame rate                               : 23.976 (24000/1001) FPS
Color space                              : YUV
Chroma subsampling                       : 4:2:0
Bit depth                                : 8 bits
Scan type                                : Progressive
Bits/(Pixel*Frame)                       : 0.091
Stream size                              : 1.09 GiB (76%)
Title                                    : ~Ranvijay~

Audio #1
ID                                       : 2
Format                                   : AC-3
Format/Info                              : Audio Coding 3
Codec ID                                 : A_AC3
Duration                                 : 1 h 43 min
Bit rate mode                            : Constant
Bit rate                                 : 224 kb/s
Channel(s)                               : 6 channels
Channel positions                        : Front: L C R, Side: L R, LFE
Sampling rate                            : 48.0 kHz
Frame rate                               : 31.250 FPS (1536 SPF)
Bit depth                                : 16 bits
Compression mode                         : Lossy
Stream size                              : 166 MiB (11%)
Title                                    : ~Ranvijay~
Language                                 : Hindi
Service kind                             : Complete Main
Default                                  : Yes
Forced                                   : Yes

Audio #2
ID                                       : 3
Format                                   : AC-3
Format/Info                              : Audio Coding 3
Codec ID                                 : A_AC3
Duration                                 : 1 h 43 min
Bit rate mode                            : Constant
Bit rate                                 : 224 kb/s
Channel(s)                               : 6 channels
Channel positions                        : Front: L C R, Side: L R, LFE
Sampling rate                            : 48.0 kHz
Frame rate                               : 31.250 FPS (1536 SPF)
Bit depth                                : 16 bits
Compression mode                         : Lossy
Stream size                              : 166 MiB (11%)
Title                                    : ~Ranvijay~
Language                                 : English
Service kind                             : Complete Main
Default                                  : No
Forced                                   : No

Text
ID                                       : 4
Format                                   : PGS
Muxing mode                              : zlib
Codec ID                                 : S_HDMV/PGS
Codec ID/Info                            : Picture based subtitle format used on BDs/HD-DVDs
Duration                                 : 1 h 42 min
Bit rate                                 : 45.5 kb/s
Count of elements                        : 2574
Stream size                              : 33.4 MiB (2%)
Title                                    : ~Ranvijay~
Language                                 : Hindi
Default                                  : Yes
Forced                                   : Yes














:download:

Quote











Sample


File Leeched & Uploaded From




Don't walk as you are king, walk as you don't care who the king is....!!
Never argue with an idiot. They drag you down to their level and then beat you with experience?

Share this topic on FacebookShare this topic on GoogleShare this topic on MySpaceShare this topic on TwitterShare this topic on Yahoo




Don't walk as you are king, walk as you don't care who the king is....!!

Thanks given by:


October 21, 2018, 09:23:33 AM
Reply #1
  • Hot Member
  • ***
  • Thank You: 0
  • Reputation: 3
  • Activity:
    2.6%
  • Posts: 582
  • Topics: 0
  • Join Date: Sep 2012
  • ShareSpark Member

Tags:
 

Related Topics





Back to top
Sitemap